#TITLE:black dragon;
#SUBTITLE:;
#ARTIST:Rhapsody;
#TITLETRANSLIT:;
#SUBTITLETRANSLIT:;
#ARTISTTRANSLIT:;
#CREDIT:;
#BANNER:Black dragon_logo.jpg;
#BACKGROUND:Black dragon_bg.jpg;
#LYRICSPATH:;
#CDTITLE:Lan.png;
#MUSIC:black dragon.mp3;
#OFFSET:-0.040;
#SAMPLESTART:34.710;
#SAMPLELENGTH:12.000;
#SELECTABLE:YES;
#BPMS:0.000=173.060;
#STOPS:;
#BGCHANGES:;
// cache tags:
#FIRSTBEAT:8.000;
#LASTBEAT:484.000;
#SONGFILENAME:Songs/lan sky/black dragon/black dragon.sm;
#HASMUSIC:0;
#HASBANNER:1;
#MUSICLENGTH:100.000;
// end cache tags

//---------------dance-single - sky----------------
#NOTES:
     dance-single:
     sky:
     Hard:
     10:
     1.000,1.000,1.000,0.390,0.555,817.000,440.000,39.000,0.000,135.000:

0000
0000
0000
0000
,
0000
0000
0000
0000
,
1101
0010
0100
1000
0100
0010
0001
0010
0100
0010
0001
0000
0010
0000
0100
0000
,
1011
0100
0010
0001
0010
0100
1000
0100
0010
0001
1000
0000
0010
0000
0100
0000
,
1011
0000
0000
1110
0000
0000
0111
0000
1101
0000
0000
0111
0000
0000
1110
0000
,
1011
0100
0010
0100
1000
0100
0010
0001
0010
0100
1000
0000
0010
0000
0001
0000
,
1101
0010
0100
0010
0001
0010
0100
1000
0100
0010
0001
0000
1000
0000
0010
0000
,
1101
0000
0000
1110
0000
0000
0111
0000
1011
0000
0000
0000
1111
0000
0000
0000
,
1101
0000
0000
0011
0000
0000
1010
0000
0000
0000
0110
0000
1010
0000
0101
0000
,
0011
0000
0000
0110
0000
0000
1010
0000
0000
0000
0110
0000
1001
0000
0110
0000
,
1011
0000
0000
1110
0000
0000
0111
0000
1101
0000
0000
0111
0000
0000
1110
0000
,
1011
0000
0000
1100
0000
0000
0101
0000
0000
0000
0011
0000
0110
0000
1010
0000
,
1100
0000
0000
0101
0000
0000
0011
0000
0000
0000
1010
0000
0101
0000
0110
0000
,
1101
0000
0000
0111
0000
0000
1011
0000
1110
0000
0000
0111
0000
0000
0000
0000
,
1110
0000
0000
0111
0000
0000
1011
0000
1101
0000
0000
1111
0000
0000
0000
0000
,
1001
0010
1100
0010
0101
0010
1001
0100
,
0011
0100
1001
0100
0011
0010
1100
0010
,
0101
0001
1010
1000
0101
0010
0110
1000
,
0101
0000
0000
0011
0000
0000
1100
0000
0000
0000
0110
0000
1001
0000
0011
0000
,
1010
0000
0000
0110
0000
0000
0011
0000
0000
0000
1010
0000
0101
0000
0011
0000
,
1001
0100
0101
0010
1010
0100
0110
0001
,
1010
0100
1001
0010
1100
0010
0101
0010
,
0110
1000
1010
0100
0101
0010
1001
0100
,
0011
0000
0000
1010
0000
0000
0110
0000
0000
0000
1001
0000
0101
0000
1010
0000
,
0101
0000
0000
0011
0000
0000
1010
0000
0000
0000
0101
0000
0010
0100
0010
0100
,
1002
0000
0000
0000
1010
0000
0000
0003
0210
0000
0000
0000
1001
0000
0000
0300
,
2010
0000
0000
0000
0110
0000
0000
3000
0021
0000
0000
0000
1001
0000
0000
0030
,
0201
0000
0000
0000
1010
0000
0000
0300
1002
0000
0000
0000
0110
0000
0000
0003
,
1020
0000
0000
0100
0000
0000
1001
0000
0000
0000
0100
0000
1000
0000
0001
0000
,
1100
0000
0000
0001
0000
0000
1001
0000
0000
0000
1000
0000
0001
0000
0100
0030
,
2001
0000
0000
0000
0101
0000
0000
3000
0012
0000
0000
0000
1010
0000
0000
0003
,
1200
0000
0000
0000
1001
0000
0000
0300
0021
0000
0000
0000
0101
0000
0000
0030
,
1201
0000
0000
0000
1010
0000
0000
0300
1002
0000
0000
0000
0110
0000
0000
0003
,
2010
0000
0000
0001
0000
0000
0110
0000
0000
0000
0001
0000
0010
0000
0100
0000
,
0011
0000
0000
0100
0000
0000
0001
0000
0010
0100
0010
0001
0010
0100
0010
3001
,
0110
1000
0011
0100
1010
0001
0110
1000
,
0101
0000
0011
0000
1010
0100
1001
0000
,
1100
0000
0101
0010
1100
0010
0101
0010
,
1001
0000
0101
0000
0011
0100
1010
0000
,
0101
0000
1001
0100
0011
1000
0110
0000
,
0101
0000
1100
0000
1001
0100
0011
0000
,
1001
0100
0011
1100
0010
0100
1011
0100
,
2011
0000
0000
0000
0100
0000
0000
0000
0010
0000
0100
3000
0011
0000
0000
0000
,
2002
0000
0000
0000
0010
0000
0100
0000
0010
0000
0100
0000
0010
0000
0100
3003
,
0110
0001
1010
0100
1001
0010
1100
0010
,
0101
0001
0011
0100
1100
0010
0101
1000
,
0011
0100
1010
0100
0101
0001
1001
1000
,
1010
0100
0101
0010
1010
0100
0110
0001
,
0011
0100
1001
0010
1100
0010
0101
0010
,
1010
0100
0101
0001
0110
0100
1010
1000
,
1001
0001
0101
0010
1010
0100
0101
0001
,
1001
1010
0110
0101
0011
1100
0110
1001
,
0101
0010
1010
1000
0011
0100
1001
0010
,
1100
0001
0110
1000
0011
0100
1001
0010
,
0110
0100
0101
0001
1001
0010
1010
0100
,
1001
1000
0011
0100
0110
0010
1010
0100
,
1001
0100
0011
0100
1001
0010
1100
0001
,
0110
1000
0011
0100
1001
0010
0101
0010
,
1010
0100
1001
0100
0011
0010
0101
0010
,
1100
0011
0100
0100
0011
0100
1011
0000
,
1102
0000
0000
0000
0110
0000
0000
0000
1010
0000
0000
0000
1100
0000
0000
0003
,
0210
0000
0000
0000
1001
0000
0000
0300
1020
0000
0000
0000
0101
0000
0000
0030
,
2001
0000
0000
0000
0101
0000
0000
0000
0110
0000
0000
0000
0011
0000
0000
3000
,
0102
0000
0000
0000
1010
0000
0000
0000
0110
0000
0000
0000
1100
0000
0000
0003
,
1200
0000
0000
0000
0011
0000
0000
0000
1001
0000
0000
0000
1010
0000
0000
0300
,
0021
0000
0000
0000
0101
0000
0000
0030
1002
0000
0000
0000
0110
0000
0000
0003
,
2010
0000
0000
0000
0101
0000
0000
0000
0011
0000
0000
0000
0110
0000
0000
3000
,
0101
0111
1010
1110
,
1011
0000
0000
0111
0000
0000
1110
0000
,
1101
0000
0000
1110
0000
0000
0111
0000
,
1111
0000
0000
0000
0000
0000
0000
0000
0000
0000
0000
0000
0010
0100
0010
0000
,
1001
0000
0000
0111
0000
0000
1110
0000
,
1011
0000
0000
1100
0000
0000
0101
0000
0000
0000
0011
0000
0110
0000
1010
0000
,
1100
0000
0000
0101
0000
0000
0011
0000
0000
0000
1010
0000
0101
0000
0110
0000
,
1101
0000
0000
0111
0000
0000
1011
0000
1110
0000
0000
0111
0000
0000
0000
0000
,
1110
0000
0000
0111
0000
0000
1011
0000
1101
0000
0000
1111
0000
0000
0000
0000
,
0100
0010
0001
0010
0100
1000
0100
0010
0001
0010
0100
0010
0001
0010
0100
1000
,
0100
0010
0100
1000
0100
0010
0001
0010
1100
0000
0000
0000
0101
0000
0000
0000
,
0010
0100
1000
0100
0010
0100
1000
0100
0001
0010
0100
1000
0100
0010
0001
0010
,
0100
0010
0001
0010
0100
1000
0100
0010
0002
0000
0000
0000
0000
0000
0000
0003
,
1000
0100
0010
0001
0010
0100
0010
0001
0100
1000
0100
0010
0100
1000
0100
0010
,
0001
0010
0100
0010
0100
1000
0100
0010
0101
0000
0000
0000
1001
0000
0000
0000
,
0010
0100
0010
0001
0010
0100
0010
0001
0010
0100
1000
0100
0010
0100
0010
0001
,
0010
0100
1000
0100
0010
0100
1000
0100
0020
0000
0000
0000
0000
0000
0000
0030
,
0101
1000
0011
0100
1010
0001
0110
1000
,
0101
0000
0011
0000
1010
0100
1001
0000
,
1100
0000
0101
0010
1100
0010
0101
0010
,
1001
0000
0101
0000
0011
0100
1010
0000
,
0101
0000
1001
0100
0011
1000
0110
0000
,
0101
0000
1100
0000
1001
0100
0011
0000
,
0101
1000
0011
0110
1000
0001
1100
0010
,
0202
0000
0000
0000
0000
0000
0000
0000
0000
0000
0000
0303
1010
0000
0000
0000
,
0001
0010
0100
1000
0010
0100
1000
0100
0010
0001
0100
0010
0001
0010
0100
1000
,
0101
0001
1010
0100
1001
0010
1100
0010
,
0101
0001
0011
0100
1100
0010
0101
1000
,
0011
0100
1010
0100
0101
0001
1001
1000
,
1010
0100
0101
0010
1010
0100
0110
0001
,
0011
0100
1001
0010
1100
0010
0101
0010
,
1010
0100
0101
0001
0110
0100
1010
1000
,
1001
0001
0101
0010
1010
0100
0101
0001
,
1001
1010
0110
0101
0011
1100
0110
1001
,
0101
0010
1010
1000
0011
0100
1001
0010
,
1100
0001
0110
1000
0011
0100
1001
0010
,
0110
0100
0101
0001
1001
0010
1010
0100
,
1001
1000
0011
0100
0110
0010
1010
0100
,
1001
0100
0011
0100
1001
0010
1100
0001
,
0110
1000
0011
0100
1001
0010
0101
0010
,
1010
0100
1001
0100
0011
0010
0101
0010
,
1100
0011
0100
0100
0011
0100
1011
0000
,
1102
0000
0000
0000
0110
0000
0000
0000
1010
0000
0000
0000
1100
0000
0000
0003
,
0210
0000
0000
0000
1001
0000
0000
0300
1020
0000
0000
0000
0101
0000
0000
0030
,
2001
0000
0000
0000
0101
0000
0000
0000
0110
0000
0000
0000
0011
0000
0000
3000
,
0102
0000
0000
0000
1010
0000
0000
0000
0110
0000
0000
0000
1100
0000
0000
0003
,
1200
0000
0000
0000
0011
0000
0000
0000
1001
0000
0000
0000
1010
0000
0000
0300
,
0021
0000
0000
0000
0101
0000
0000
0030
1002
0000
0000
0000
0110
0000
0000
0003
,
2010
0000
0000
0000
0101
0000
0000
0000
0011
0000
0000
0000
0110
0000
0000
3000
,
0101
0111
1010
1110
,
1011
0000
0000
0111
0000
0000
1110
0000
,
1101
0000
0000
1110
0000
0000
0111
0000
,
1111
0000
0000
0000
0000
0000
0000
0000
0000
0000
0000
0000
0010
0100
0010
0000
,
1001
0000
0000
1110
0000
0000
0111
0000
,
1111
0000
0000
0000
;
